Bedrock Records - Layered Sounds Vol. 02
Resultados 1 al 9 de 9
  1. #1
    Fecha de ingreso
    01 octubre 2005
    Ubicación
    Rg
    Agradecimientos

    Review Bedrock Records - Layered Sounds Vol. 02

    Bedrock Records - Layered Sounds Vol. 02

    01. Bedrock - Forge (Fretwell Remix)
    02. KVK - Reality Theory (Original Mix)
    03. Bedrock - Emerald (Grayarea Speakeasy Remix)
    04. Astro & Glyde - Aimless Dame (Randall Jones Delayed Dub)
    05. Dousk - Pa Dida (Original Mix)
    06. Derek Howell - Happy To Be Sad (Original Mix)
    07. POP & Taylor - Aura (Northern Lights Mix)
    08. Tim Skinner & Martin Accorsi - Playing For Digweed
    09. Luke Fair - Lokitas (Original Mix)
    10. Steiger - Postcard From The Edge (Breaks Mix)
    11. Weird Continental Types - Phat As (Original Mix)
    12. Elite Force - SK8R (Original Mix)
    13. Pole Folder - Salvation On Slavery Sins (Nick Muir Remix)
    14. Guy Gerber - Stoppage Time (Max Graham Sidechain Remix)

    http://www.megaupload.com/?d=D5L5S9HU

    Bedrock Records - Layered Sounds Vol. 02 (CD1)


    PERFORMER "Bedrock Records"
    TITLE "Layered Sounds Vol. 02 (CD1)"
    FILE "Bedrock Records - Layered Sounds Vol. 02 (CD1).mp3" MP3
    TRACK 01 AUDIO
    TITLE "I'll Kill You__Softly"
    PERFORMER "Terry Grant Feat Jennifer Horne"
    INDEX 01 00:00:00
    TRACK 02 AUDIO
    TITLE "The March"
    PERFORMER Voyager
    INDEX 01 05:56:43
    TRACK 03 AUDIO
    TITLE "Open Arms"
    PERFORMER "Yunus Guvenen"
    INDEX 01 10:35:51
    TRACK 04 AUDIO
    TITLE "All I Know__Astrid's Downtempo Version"
    PERFORMER "Morgan Page & Gregory Shiff Feat Astrid Suryanto"
    INDEX 01 14:55:36
    TRACK 05 AUDIO
    TITLE "Melburn__Am Bee En Tea Mix"
    PERFORMER "Luke Chable"
    INDEX 01 19:22:39
    TRACK 06 AUDIO
    TITLE Indigo
    PERFORMER "Yunus Guvenen"
    INDEX 01 24:20:16
    TRACK 07 AUDIO
    TITLE "Downtown Bubble"
    PERFORMER Voyager
    INDEX 01 29:13:01
    TRACK 08 AUDIO
    TITLE "Glimmer__Bedrock mix"
    PERFORMER "Quincy Jones And Bill Cosby"
    INDEX 01 34:53:25
    TRACK 09 AUDIO
    TITLE "Postcard From The Edge__Ambient Mix 2"
    PERFORMER Steiger
    INDEX 01 40:02:52
    TRACK 10 AUDIO
    TITLE "Strange Dimensions__Downey Mix"
    PERFORMER Jiva
    INDEX 01 45:03:20
    TRACK 11 AUDIO
    TITLE "I'll Kill You__John Debo Ambient Mix"
    PERFORMER "Terry Grant Feat Jennifer Horne"
    INDEX 01 49:25:69

    este cd es mas tranqui, pero no deja de ser esquisito

    http://www.megaupload.com/?d=A7PR3PI3

    Última edición por Homero groxo; domingo 08 enero de 2006 a las 01:43

  2. #2
    Fecha de ingreso
    28 agosto 2005
    Ubicación
    adrogue
    Edad
    29
    Agradecimientos

    Re: Bedrock Records - Layered Sounds Vol. 02

    man, ke buen disco, xD! mi segundo mejor disco del '05..
    - techminimaldubclick .

  3. #3
    Fecha de ingreso
    16 enero 2005
    Ubicación
    Recolettta
    Agradecimientos

    Re: Bedrock Records - Layered Sounds Vol. 02

    Excelente Cd ...
    We Are Accidents Waiting To Happen* www.myspace.com/vuenos_ayres

  4. #4
    Fecha de ingreso
    28 diciembre 2004
    Ubicación
    Caballito
    Edad
    44
    Agradecimientos

    Re: Bedrock Records - Layered Sounds Vol. 02

    Este es el cue del cd.. igual el que postearon aca es el cd2 del vol2. Faltaría conseguir el cd1 del vol2

    TITLE "Layered Sounds 2 - Disc Two - Upbeats"
    PERFORMER "Various"
    FILE "Bedrock Records - Layered Sounds.mp3" MP3
    TRACK 01 AUDIO
    TITLE "Forge (Fretwell Remix)"
    PERFORMER "Bedrock"
    PREGAP 00:02:00
    INDEX 01 00:00:00
    TRACK 02 AUDIO
    TITLE "Reality Theory (Original Mix)"
    PERFORMER "KVK"
    INDEX 01 06:40:65
    TRACK 03 AUDIO
    TITLE "Emerald (Grayarea's Speakeasy Remix)"
    PERFORMER "Bedrock"
    INDEX 01 10:55:65
    TRACK 04 AUDIO
    TITLE "Aimless Dame (RJones Delayed Dub)"
    PERFORMER "Astro & Glyde"
    INDEX 01 17:03:27
    TRACK 05 AUDIO
    TITLE "Pa Dida (Original Mix)"
    PERFORMER "Dousk"
    INDEX 01 22:33:25
    TRACK 06 AUDIO
    TITLE "Happy To Be Sad (Original Mix)"
    PERFORMER "Derek Howell"
    INDEX 01 27:42:52
    TRACK 07 AUDIO
    TITLE "Aura (Northern Lights Mix)"
    PERFORMER "POB & Taylor"
    INDEX 01 33:59:42
    TRACK 08 AUDIO
    TITLE "Playing for Digweed"
    PERFORMER "Tim Skinner & Martin Accorsi"
    INDEX 01 40:07:04
    TRACK 09 AUDIO
    TITLE "Lokitas (Original Mix)"
    PERFORMER "Luke Fair"
    INDEX 01 45:37:03
    TRACK 10 AUDIO
    TITLE "Postcard From The Edge (Breaks Mix)"
    PERFORMER "Steiger"
    INDEX 01 51:22:02
    TRACK 11 AUDIO
    TITLE "Phat As (Original Mix)"
    PERFORMER "Weird Continental Types"
    INDEX 01 56:59:41
    TRACK 12 AUDIO
    TITLE "sK8r (Original Mix)"
    PERFORMER "Elite Force"
    INDEX 01 61:44:41
    TRACK 13 AUDIO
    TITLE "Salvation On Slavery Sins (Nick Muir Remix)"
    PERFORMER "Pole Folder"
    INDEX 01 65:44:41
    TRACK 14 AUDIO
    TITLE "Stoppage Time (Max Graham Sidechain Remix)"
    PERFORMER "Guy Gerber"
    INDEX 01 70:59:40

  5. #5
    Fecha de ingreso
    19 noviembre 2005
    Ubicación
    Wolfville
    Edad
    28
    Agradecimientos

    Re: Bedrock Records - Layered Sounds Vol. 02

    buenaa!! vamos bajandolo y esperando el cd1

  6. #6
    Fecha de ingreso
    11 agosto 2004
    Ubicación
    Palermo
    Edad
    27
    Agradecimientos

  7. #7
    Fecha de ingreso
    01 octubre 2005
    Ubicación
    Rg
    Agradecimientos

    Re: Bedrock Records - Layered Sounds Vol. 02

    Hola de nuevo gente para los que pedian el cd1,hay lo tiene con su respectivo cue.

    Saluetes

  8. #8
    Fecha de ingreso
    19 noviembre 2005
    Ubicación
    Wolfville
    Edad
    28
    Agradecimientos

    Re: Bedrock Records - Layered Sounds Vol. 02

    grosso!! a mi me encanto estos cds....que buena musica .....double gracias

  9. #9
    Fecha de ingreso
    13 noviembre 2005
    Ubicación
    Mdq
    Edad
    39
    Agradecimientos

    Re: Bedrock Records - Layered Sounds Vol. 02

    zarapdo disco, man, se agradece enormemente!!!

Etiquetas para este tema

Información de tema

Usuarios viendo este tema

Actualmente hay 1 usuarios viendo este tema. (0 miembros y 1 visitantes)

Temas similares

  1. Respuestas: 5
    Último mensaje: viernes 24 febrero de 2006, 14:16
  2. Bedrock: Layered Sounds 2
    Por chApu en el foro SETs
    Respuestas: 1
    Último mensaje: sábado 10 diciembre de 2005, 08:22
  3. John Digweed - Layered Sounds 2
    Por Dios en el foro SETs
    Respuestas: 3
    Último mensaje: martes 01 noviembre de 2005, 16:02

Permisos de publicación

  • No puedes crear nuevos temas
  • No puedes responder temas
  • No puedes subir archivos adjuntos
  • No puedes editar tus mensajes
  •