Danny Howells - Global Underground #027 MIAMI

-- Publicidad --

Delta 90.3

Resultados 1 al 12 de 12
  1. #1
    Fecha de ingreso
    12 octubre 2004
    Ubicación
    Buenos Aires
    Edad
    30
    Agradecimientos

    Danny Howells - Global Underground #027 MIAMI


    Fecha de salida: Lunes 21 de Marzo del 2005


    Luego de haber editado un Nu-Breed para la discográfica GU, ahora Howells, abre el año con su primera presentación en los cd´s de Global Underground con un cd doble grabado en Miami y lo presenta en una extensa gira a agenda llena hasta el mes de Mayo, visitando en los meses de Febrero y Marzo todo norteamérica terminando en Mayo con una pequeña gira por Europa que lo tendrá de visitante en Grecia, Holanda, Turquía e Inglaterra.

    Tracklist:
    Disco 1
    • Subway - Thermal
    • Tomas Barfot - Light Shine (Original Mix)
    • AN-2 - Road Through The Rain (Steve Bug Mix)
    • Ame - Shiro
    • Sneaker Pimps - Post Modern Sleaze (Salt City Mix)
    • Adam Kroll Break 3000 - Discotronic
    • Tantra - Hills Of Katmandu
    • DJ Nique - Mission TF017
    • Olaf Pozsgay - Like A Virgin
    • Silicone Soul - Les Nocturnes
    • Mimosa - End Of Me (Original Mix)
    • Atomphunk - Boogie Down (Kneedeep Mix)
    • Bent - Exercise 5
    Disco 2
    • Dennis Desantis - Thin Air
    • Codebase - Seek And Destroy
    • Dennis Desantis - Hiatus
    • Sid Lerock - Bulldozer (Original Mix)
    • Steve Barnes - Cosmic Sandwich
    • Wighnomy Bros - Wurze & Blusse
    • Mateo Murphy - Latin Lover
    • Boogie Drama - Stalkers Groove
    • Drama Society - Crying Hero (Tiga Mix)
    • Bobby Peru - Blood Money
    • Unit 4 - Bodydub (Tiefschwarz Mix)
    • Solid Gold Playaz - Le Soul Afrique
    • Ashtrax - Freeload (Free Love)
    • Bryan Zentz - Redfield
    • Greens Keepers - Keep It Down
    • Throbbing Gristle - Hot On The Heels Of Love (Simon Radcliffe Mix)


  2. #2
    Fecha de ingreso
    11 agosto 2004
    Ubicación
    Palermo
    Edad
    28
    Agradecimientos

    Re: Danny Howells - Global Underground #027 MIAMI

    ya lo habia leido en progressive-sounds.com pero en ingles
    thanks por postearlo ... pense en hacerlo pero buee, a mi no me intereso mucho
    habra que escucharlo y ver que onda, el tracklist tampoco me impresiono pero en general no me gusta dh
    mas info @ http://www.nokiatrends.com.ar/4_1_1.asp?secao=3&id=78
    "the mysterious process during which what is at first difficult becomes progressively easier and more pleasurable through practice"


  3. #3
    Fecha de ingreso
    14 septiembre 2004
    Ubicación
    bs as
    Edad
    33
    Agradecimientos

    Re: Danny Howells - Global Underground #027 MIAMI

    Nose si pasa digi porque te interese a vos o no, pasa por el tema de que si vez algun lanzamiento importante lo postees como lo hizo facu, ya que esto quizas le interese a mucha gente.
    Por el disco quiero decir que no es tan bueno como el del Hernan, pero habra que escucharlo igual.
    Estaria bueno que este nene se de una vueltita por la baires...yo lo estoy esperando desde la ultima vez. Me volvo la cabeza en la sothfest, y ahora esta cambiando un poco la onda con respecto a lo que hace habitualmente por lo que me dijeron, asi que no estaria mal escuchar lo nuevo de el.
    [FONT=Book Antiqua]El Sr. Hernan Cattaneo cada día toca mejor....[/FONT]

  4. #4
    Fecha de ingreso
    12 octubre 2004
    Ubicación
    Buenos Aires
    Edad
    30
    Agradecimientos

    Re: Danny Howells - Global Underground #027 MIAMI

    Yo no soy fan de Howells realmente.. pero me pareció un lanzamiento interesante.


  5. #5
    Fecha de ingreso
    17 octubre 2004
    Ubicación
    nomerompaslasbolaskero
    Agradecimientos

    Re: Danny Howells - Global Underground #027 MIAMI

    Yo escuche Danny Howells solo una vez: en Creamfields 2003, y me encanto, el tipo tenia mucha onda, la musica muy buena, y nunca mas escuche nada, me viene barbaro esto, gracias facu.

  6. #6
    Fecha de ingreso
    04 agosto 2004
    Ubicación
    Capital Federal
    Edad
    28
    Agradecimientos

    Re: Danny Howells - Global Underground #027 MIAMI

    Danny la rompe... y creo que lo demostró en SouthFest.. tuvo un cierre increible... y paso por arriba a todos... ... espero que vuelva a Arg. poruqe las coasas que hace son increibles... o x lo menos sus sets en vivo




  7. #7
    Fecha de ingreso
    04 agosto 2004
    Ubicación
    Capital Federal
    Edad
    28
    Agradecimientos

    Re: Danny Howells - Global Underground #027 MIAMI

    Aca si se los quieren bajar a los 2 CDs.... eso si, apurense porque los links solo van a estar por un par de dias.

    Danny Howells - Global underground #27 [CD 1]

    Danny Howells - Global underground #27 [CD 2]

    Aca les dejo los CUE's:

    CD 1:

    TITLE "GU 027 CD1"
    PERFORMER "Danny Howells"
    FILE "Danny Howells - Global underground 27 [CD 1].mp3" MP3
    TRACK 01 AUDIO
    TITLE "Thermal"
    PERFORMER "Subway"
    INDEX 00 00:00:00
    INDEX 01 00:01:27
    TRACK 02 AUDIO
    TITLE "Light Shine (Original Mix)"
    PERFORMER "Tomas Barfot"
    INDEX 00 06:12:31
    INDEX 01 06:12:72
    TRACK 03 AUDIO
    TITLE "Road Through The Rain (Steve Bug Mix)"
    PERFORMER "AN-2"
    INDEX 00 10:51:12
    INDEX 01 10:51:54
    TRACK 04 AUDIO
    TITLE "Shiro"
    PERFORMER "Ame"
    INDEX 00 16:47:16
    INDEX 01 16:47:50
    TRACK 05 AUDIO
    TITLE "Post Modern Sleaze (Salt City Mix)"
    PERFORMER "Sneaker Pimps"
    INDEX 00 24:31:12
    INDEX 01 24:31:34
    TRACK 06 AUDIO
    TITLE "Discotronic"
    PERFORMER "Adam Kroll Break 3000"
    INDEX 00 31:58:66
    INDEX 01 31:59:38
    TRACK 07 AUDIO
    TITLE "Hills Of Katmandu"
    PERFORMER "Tantra"
    INDEX 00 36:45:25
    INDEX 01 36:45:34
    TRACK 08 AUDIO
    TITLE "Mission TF017"
    PERFORMER "DJ Nique"
    INDEX 00 42:12:05
    INDEX 01 42:13:29
    TRACK 09 AUDIO
    TITLE "Like A Virgin"
    PERFORMER "Olaf Pozsgay"
    INDEX 00 47:06:20
    INDEX 01 47:06:42
    TRACK 10 AUDIO
    TITLE "Les Nocturnes"
    PERFORMER "Silicone Soul"
    INDEX 01 52:30:43
    TRACK 11 AUDIO
    TITLE "End Of Me (Original Mix)"
    PERFORMER "Mimosa"
    INDEX 00 59:26:18
    INDEX 01 59:26:36
    TRACK 12 AUDIO
    TITLE "Boogie Down (Kneedeep Mix)"
    PERFORMER "Atomphunk"
    INDEX 00 65:05:05
    INDEX 01 65:05:23
    TRACK 13 AUDIO
    TITLE "Exercise 5"
    PERFORMER "Bent"
    INDEX 00 69:56:56
    INDEX 01 69:57:38
    CD 2:

    TITLE "GU 027 CD2"
    PERFORMER "Danny Howells"
    FILE "Danny Howells - Global underground 27 [CD 2].mp3" MP3
    TRACK 01 AUDIO
    TITLE "Thin Air"
    PERFORMER "Dennis Desantis"
    INDEX 01 00:00:00
    TRACK 02 AUDIO
    TITLE "Seek And Destroy"
    PERFORMER "Codebase"
    INDEX 00 03:33:06
    INDEX 01 03:33:34
    TRACK 03 AUDIO
    TITLE "Hiatus"
    PERFORMER "Dennis Desantis"
    INDEX 00 06:37:57
    INDEX 01 06:38:28
    TRACK 04 AUDIO
    TITLE "Bulldozer (Original Mix)"
    PERFORMER "Sid Lerock"
    INDEX 00 11:20:65
    INDEX 01 11:21:35
    TRACK 05 AUDIO
    TITLE "Cosmic Sandwich"
    PERFORMER "Steve Barnes"
    INDEX 00 18:00:27
    INDEX 01 18:00:36
    TRACK 06 AUDIO
    TITLE "Wurze & Blusse"
    PERFORMER "Wighnomy Bros"
    INDEX 00 20:50:28
    INDEX 01 20:50:47
    TRACK 07 AUDIO
    TITLE "Latin Lover"
    PERFORMER "Mateo Murphy"
    INDEX 00 24:48:59
    INDEX 01 24:49:20
    TRACK 08 AUDIO
    TITLE "Stalkers Groove"
    PERFORMER "Boogie Drama"
    INDEX 00 30:24:49
    INDEX 01 30:24:58
    TRACK 09 AUDIO
    TITLE "Crying Hero (Tiga Mix)"
    PERFORMER "Drama Society"
    INDEX 00 35:26:67
    INDEX 01 35:27:60
    TRACK 10 AUDIO
    TITLE "Blood Money"
    PERFORMER "Bobby Peru"
    INDEX 00 39:44:54
    INDEX 01 39:44:67
    TRACK 11 AUDIO
    TITLE "Bodydub (Tiefschwarz Mix)"
    PERFORMER "Unit 4"
    INDEX 00 44:16:23
    INDEX 01 44:16:51
    TRACK 12 AUDIO
    TITLE "Le Soul Afrique"
    PERFORMER "Solid Gold Playaz"
    INDEX 00 50:33:29
    INDEX 01 50:34:04
    TRACK 13 AUDIO
    TITLE "Freeload (Free Love)"
    PERFORMER "Ashtrax"
    INDEX 00 54:26:41
    INDEX 01 54:28:20
    TRACK 14 AUDIO
    TITLE "Redfield"
    PERFORMER "Bryan Zentz"
    INDEX 00 59:28:31
    INDEX 01 59:28:55
    TRACK 15 AUDIO
    TITLE "Keep It Down"
    PERFORMER "Greens Keepers"
    INDEX 00 65:13:51
    INDEX 01 65:13:70
    TRACK 16 AUDIO
    TITLE "Hot On The Heels Of Love (Simon Radcliffe Mix)"
    PERFORMER "Throbbing Gristle"
    INDEX 01 71:36:14




  8. #8
    Fecha de ingreso
    12 octubre 2004
    Ubicación
    Buenos Aires
    Edad
    30
    Agradecimientos

    Re: Danny Howells - Global Underground #027 MIAMI

    Loco me lo bajé del EMULE
    Se zarpó eh.. bailable y volador!
    le doy
    8 Kintines!


    JUAN:
    Tu aporte ultimamente al foro se está volviendo muy importante, se nota el esfuerzo men y la buena onda para ke se nutra


  9. #9
    Fecha de ingreso
    17 octubre 2004
    Ubicación
    nomerompaslasbolaskero
    Agradecimientos

    Re: Danny Howells - Global Underground #027 MIAMI

    Como me facilitas las cosas, gracias juanete.

  10. #10
    Fecha de ingreso
    20 octubre 2004
    Ubicación
    Capital Federal
    Edad
    49
    Agradecimientos

    Re: Danny Howells - Global Underground #027 MIAMI

    Tremendo juanete!! Ya van muchas veces en el día que te agradezco!! IMPRESIONANTE!! Además va a las chapas!!!
    30/12/2004 - No olvidarse, nos pudo tocar...

  11. #11
    Fecha de ingreso
    04 agosto 2004
    Ubicación
    Capital Federal
    Edad
    28
    Agradecimientos

    Re: Danny Howells - Global Underground #027 MIAMI

    jajaja... gracias a todos.. eso si q nose x cuantos dias van a estar los links..




  12. #12
    Fecha de ingreso
    19 septiembre 1997
    Ubicación
    Ciudad Autónoma de Buenos Aires
    Agradecimientos

    Re: Danny Howells - Global Underground #027 MIAMI

    Cita Iniciado por Gabriel_Arena
    Por el disco quiero decir que no es tan bueno como el del Hernan, pero habra que escucharlo igual.
    sos el más pajero gabi!!!!
    no lo escuchaste todavía pero sabes que el de hernan es mejor, jaaaaaajaaaaaaaaaa, eso se llama fanatismo ciego :p
    te quiero igual gabi! ... como amigo
    .:: Kero ::.
    Por consultas del foro, dirigirse a Julian

Etiquetas para este tema

Información de tema

Usuarios viendo este tema

Actualmente hay 1 usuarios viendo este tema. (0 miembros y 1 visitantes)

Temas similares

  1. Danny Howells @ Ultra Fest Miami (25.03.06)
    Por AEDRIAN en el foro SETs
    Respuestas: 0
    Último mensaje: viernes 01 septiembre de 2006, 13:15
  2. Pedido - Musica Global Underground 027 - Danny Howells
    Por deimian en el foro Seccion para Pedidos
    Respuestas: 0
    Último mensaje: viernes 30 junio de 2006, 18:20
  3. Danny Howells - Global Underground 027: Miami
    Por capsulin en el foro SETs
    Respuestas: 1
    Último mensaje: miércoles 23 febrero de 2005, 17:44

Permisos de publicación

  • No puedes crear nuevos temas
  • No puedes responder temas
  • No puedes subir archivos adjuntos
  • No puedes editar tus mensajes
  •